#TITLE:Fatboy Slim;
#SUBTITLE:- Gangster Tripping;
#ARTIST:Unknown artist;
#TITLETRANSLIT:;
#SUBTITLETRANSLIT:;
#ARTISTTRANSLIT:;
#CREDIT:;
#BANNER:;
#BACKGROUND:;
#LYRICSPATH:;
#CDTITLE:;
#MUSIC:Fatboy Slim - Gangster Tripping.mp3;
#OFFSET:-0.260;
#SAMPLESTART:100.000;
#SAMPLELENGTH:12.000;
#SELECTABLE:YES;
#BPMS:0.000=60.000,2.375=118.060,7.813=250.481,12.875=463.718,33.875=60.000,37.000=200.001;
#STOPS:;
#BGCHANGES:;
// cache tags:
#FIRSTBEAT:0.000;
#LASTBEAT:38.188;
#SONGFILENAME:Songs/nhac/Fatboy Slim - Gangster Tripping/Fatboy Slim - Gangster Tripping.sm;
#HASMUSIC:1;
#HASBANNER:0;
#MUSICLENGTH:320.086;
// end cache tags

//---------------dance-single - ----------------
#NOTES:
     dance-single:
     :
     Hard:
     1:
     0.387,0.386,0.531,0.531,0.665,488.000,170.000,170.000,0.000,109.000:
1000
0100
0010
0001
0002
0000
0000
0000
0000
0003
0000
0000
1000
0100
0010
1000
0100
0010
1000
0100
0001
1000
0100
0001
1000
0010
0001
1000
0010
0001
0000
0000
0000
0000
0000
0000
0000
0000
1000
0100
0010
0000
0001
2210
3320
1132
0023
0231
0320
0030
2200
3320
0030
1002
0203
0000
0300
0000
0010
2200
3302
1103
0000
0000
,
0000
0000
0000
0000
0000
0000
0000
0000
0000
1000
0100
0100
0010
0101
0100
1000
0100
0101
0110
0100
0101
0110
0101
0000
0012
0023
1130
0101
1000
0200
1302
0003
0102
1103
0000
0100
0102
0103
0100
0100
2100
3000
0101
0100
1112
0103
1102
0103
0101
1100
2122
3133
0100
0100
0100
0000
0000
0000
0000
0000
0000
0100
0010
2010
,
3000
1002
0013
0200
0300
0200
0310
2100
0200
3321
0031
0100
0000
2210
3310
0002
2013
3120
0132
0020
0033
2200
3302
0000
0203
0312
0013
0000
0000
2000
3100
0022
0233
2300
3100
0100
0100
0100
0100
0100
1110
0111
1100
1101
1110
0101
1100
0101
0100
2100
3100
1110
0100
0100
0100
0122
0133
0101
0100
1120
0102
0133
0111
2101
,
3101
0100
0100
0100
0100
0100
0100
0100
0000
0000
0000
0000
0000
0000
0100
0102
0113
0101
0100
0110
2100
3100
0100
0122
2133
3102
2103
3100
0002
0020
0003
2030
3012
1003
0100
2000
3002
0120
2133
3120
0132
2123
3132
2113
3120
0100
0100
0132
2103
3110
0120
2130
3112
0123
2130
3100
0121
2130
3102
1123
0131
0111
2211
3301
,
0101
0101
2001
3201
0301
0201
0301
0201
0301
2121
3002
0130
0113
0110
0101
1111
1111
0010
0010
0110
2100
3102
0103
2100
0120
3130
2110
3121
0132
0110
0100
0100
0100
0100
2103
3120
0130
0100
0100
0110
0120
0130
2110
3100
2100
3100
0100
2100
3121
0130
1102
2103
0120
3132
2123
3132
2000
3003
2120
3032
0023
2030
3000
0000
,
2010
0020
3132
2103
0100
3102
0123
2130
3120
2100
3132
2023
3030
0202
0323
0230
0312
0203
0300
0012
0223
2030
3022
0033
2001
3011
0000
0000
0000
0000
0000
0300
0000
0000
0000
0000
0000
0000
0100
0100
0000
0000
0100
0000
0000
0000
0000
0000
0000
0000
0000
0000
0000
0000
2120
3130
0020
0030
2000
3200
0300
0100
2100
3200
,
0300
0100
0100
0100
0100
0100
0100
0100
0100
0100
0100
0100
0100
0100
0100
0000
0000
0100
0100
0100
0100
0000
0000
0000
0000
0000
0000
0100
0100
0100
0100
0100
0100
0100
0100
0100
0100
0100
0000
0000
0100
0100
0100
0100
0100
0000
0000
0100
0100
0100
0100
0010
0010
0010
0010
0010
0010
0010
0010
0000
0010
0010
0010
0010
,
0010
0010
0010
0010
0010
0010
0010
0010
0010
0000
1100
1100
1100
1100
1100
1100
1100
1100
1100
1100
1100
1100
1100
1100
1100
1100
1100
1100
1100
1100
1100
1100
1100
1000
1000
1100
1100
1100
1100
0010
0001
0010
0001
0020
0032
0023
0032
0023
0032
0023
0032
0023
0031
0010
0002
0023
0031
0000
0000
0000
0000
0000
1000
0100
,
0010
1000
0100
0010
1000
0100
0001
1000
0100
0001
1000
0010
0001
1000
0010
0001
0100
0010
0001
0100
0010
0001
0000
0000
0000
0000
0000
0000
0000
0000
1000
0100
0100
0010
0001
0010
0100
0100
1000
1000
0100
0010
0010
0001
0010
0010
0100
1000
0100
0100
0010
0001
0010
0100
0100
1000
1000
0100
0010
0010
0001
0010
0010
0100
,
1000
0100
0100
0010
0001
0010
0100
0100
1000
0000
0000
0000
0000
0000
0000
0000
1000
0010
0100
0001
1000
0010
0100
0001
1000
0010
0100
0001
0001
0100
0010
1000
0001
0100
0010
1000
0000
0000
0000
0000
0000
0000
0000
0000
0000
0000
0000
0000
0000
0000
0000
0000
0000
0000
0000
0000
0000
0000
0000
0000
0000
0000
0000
0000
;
